[Login] or [Signup]
Login
Username:
Password:
[Signup]
[Recover Account]


Poll


You must be logged in to view polls



Torrent Details For "Mission Impossible Fallout 2018 1080p IMAX BluRay x264 Dual Audio [Org Hindi DD 5.1 - English D..."

Mission Impossible Fallout 2018 1080p IMAX BluRay x264 Dual Audio [Org Hindi DD 5.1 - English D...

Download this torrent | Magnet Download
Health:
Seeds: 26
Leechers: 56
Completed: 16 
Last Checked: 03-12-2018 09:28:40
External Torrent
Update Stats
Download Magnet


Poster
No poster


Watch-Free-HD     Download

Details
Name:Mission Impossible Fallout 2018 1080p IMAX BluRay x264 Dual Audio [Org Hindi DD 5.1 - English D...
Description:

Mission Impossible Fallout 2018 1080p IMAX BluRay x264 Dual Audio [Org Hindi DD 5.1 - English DD 5.1] ESub [MW]

 

General
Format                                   : Matroska
Format version                           : Version 4 / Version 2
File size                                : 4.54 GiB
Duration                                 : 2 h 27 min
Overall bit rate                         : 4 408 kb/s

Video
ID                                       : 1
Format                                   : AVC
Format/Info                              : Advanced Video Codec
Format profile                           : [email protected]
Format settings                          : CABAC / 4 Ref Frames
Format settings, CABAC                   : Yes
Format settings, RefFrames               : 4 frames
Codec ID                                 : V_MPEG4/ISO/AVC
Duration                                 : 2 h 27 min
Bit rate                                 : 3 500 kb/s
Width                                    : 1 920 pixels
Height                                   : 1 080 pixels
Display aspect ratio                     : 16:9
Frame rate mode                          : Constant
Frame rate                               : 23.976 (24000/1001) FPS
Color space                              : YUV
Chroma subsampling                       : 4:2:0
Bit depth                                : 8 bits
Scan type                                : Progressive
Bits/(Pixel*Frame)                       : 0.070
Stream size                              : 3.48 GiB (77%)
Writing library                          : x264 core 155 r2901 7d0ff22
Default                                  : Yes
Forced                                   : No

Audio #1
ID                                       : 2
Format                                   : AC-3
Format/Info                              : Audio Coding 3
Codec ID                                 : A_AC3
Duration                                 : 2 h 27 min
Bit rate mode                            : Constant
Bit rate                                 : 640 kb/s
Channel(s)                               : 6 channels
Channel positions                        : Front: L C R, Side: L R, LFE
Sampling rate                            : 48.0 kHz
Frame rate                               : 31.250 FPS (1536 SPF)
Bit depth                                : 16 bits
Compression mode                         : Lossy
Stream size                              : 675 MiB (15%)
Language                                 : Hindi
Service kind                             : Complete Main
Default                                  : Yes
Forced                                   : Yes

Audio #2
ID                                       : 3
Format                                   : AC-3
Format/Info                              : Audio Coding 3
Codec ID                                 : A_AC3
Duration                                 : 2 h 27 min
Bit rate mode                            : Constant
Bit rate                                 : 384 kb/s
Channel(s)                               : 6 channels
Channel positions                        : Front: L C R, Side: L R, LFE
Sampling rate                            : 48.0 kHz
Frame rate                               : 31.250 FPS (1536 SPF)
Bit depth                                : 16 bits
Compression mode                         : Lossy
Stream size                              : 405 MiB (9%)
Language                                 : English
Service kind                             : Complete Main
Default                                  : No
Forced                                   : No

Text
ID                                       : 4
Format                                   : UTF-8
Codec ID                                 : S_TEXT/UTF8
Codec ID/Info                            : UTF-8 Plain Text
Duration                                 : 2 h 19 min
Bit rate                                 : 52 b/s
Count of elements                        : 1872
Stream size                              : 53.7 KiB (0%)
Language                                 : English
Default                                  : Yes
Forced                                   : No


Click To View Image

 http://pichub.site/image/cC0Hb
 http://pichub.site/image/cCxxy
 http://pichub.site/image/cComV
 http://pichub.site/image/cCpnT
 http://pichub.site/image/cC5YN
 http://pichub.site/image/cClzD

Category:Movies > Hollywood Dub
Lang:Hindi
Total Size:4.54 GB
Info Hash:9ccd1d075a16aebddff9e76497f07f8d18394b7e
Added By:Freaky
Date Added:03-12-2018 09:27:58
Views:238
Hits:37

Download Torrent

Ratings:Not Yet Rated (Log in to rate it)


Tracker:
http://share.camoe.cn:8080/announce

This Torrent also has backup trackers
URLSeedersLeechersCompleted
http://share.camoe.cn:8080/announce000
http://t.nyaatracker.com:80/announce140
http://asnet.pw:2710/announce000
http://tracker.tfile.co:80/announce000
http://pt.lax.mx:80/announce000
http://tracker.bt-hash.com:443/announce000
http://grifon.info:80/announce000
http://retracker.spark-rostov.ru:80/announce000


File List: 


Comments

No comments still posted

Powered by 10 Hamsters v2-svn -|- Page Generated In 0.244434 secs.
-|- RSS FEED
Theme By: Nikkbu