[Login] or [Signup]
Login
Username:
Password:
[Signup]
[Recover Account]


Poll


You must be logged in to view polls



Torrent Details For "Manto 2018 Hindi 720p WEB-DL x264 ESub [MW]"

Manto 2018 Hindi 720p WEB-DL x264 ESub [MW]

Download this torrent | Magnet Download
Health:
Seeds: 52
Leechers: 93
Completed: 38 
Last Checked: 03-12-2018 07:35:33
External Torrent
Update Stats
Download Magnet


Poster
No poster


Watch-Free-HD     Download

Details
Name:Manto 2018 Hindi 720p WEB-DL x264 ESub [MW]
Description:

 


General
Format                                   : Matroska
Format version                           : Version 4 / Version 2
File size                                : 928 MiB
Duration                                 : 1 h 53 min
Overall bit rate                         : 1 138 kb/s

Video
ID                                       : 1
Format                                   : AVC
Format/Info                              : Advanced Video Codec
Format profile                           : [email protected]
Format settings                          : CABAC / 4 Ref Frames
Format settings, CABAC                   : Yes
Format settings, RefFrames               : 4 frames
Codec ID                                 : V_MPEG4/ISO/AVC
Duration                                 : 1 h 53 min
Bit rate                                 : 1 000 kb/s
Width                                    : 1 280 pixels
Height                                   : 720 pixels
Display aspect ratio                     : 16:9
Frame rate mode                          : Constant
Frame rate                               : 24.000 FPS
Color space                              : YUV
Chroma subsampling                       : 4:2:0
Bit depth                                : 8 bits
Scan type                                : Progressive
Bits/(Pixel*Frame)                       : 0.045
Stream size                              : 821 MiB (89%)
Writing library                          : x264 core 155 r2901 7d0ff22
Default                                  : Yes
Forced                                   : No

Audio
ID                                       : 2
Format                                   : AAC
Format/Info                              : Advanced Audio Codec
Format profile                           : LC
Codec ID                                 : A_AAC-2
Duration                                 : 1 h 53 min
Bit rate                                 : 128 kb/s
Channel(s)                               : 2 channels
Channel positions                        : Front: L R
Sampling rate                            : 48.0 kHz
Frame rate                               : 46.875 FPS (1024 SPF)
Compression mode                         : Lossy
Stream size                              : 105 MiB (11%)
Language                                 : Hindi
Default                                  : Yes
Forced                                   : No

Text
ID                                       : 3
Format                                   : UTF-8
Codec ID                                 : S_TEXT/UTF8
Codec ID/Info                            : UTF-8 Plain Text
Duration                                 : 1 h 48 min
Bit rate                                 : 52 b/s
Count of elements                        : 1241
Stream size                              : 41.8 KiB (0%)
Default                                  : Yes
Forced                                   : No


Click To View Image

 http://pichub.site/image/cGMYd
 http://pichub.site/image/cGIjR
 http://pichub.site/image/cGa2u
 http://pichub.site/image/cGDTY
 http://pichub.site/image/cGRks
 http://pichub.site/image/cGSxB

Category:Movies > Bollywood
Lang:Hindi
Total Size:927.57 MB
Info Hash:41e17473cdeac4e1b128b188fe426e914d53c3b2
Added By:Freaky
Date Added:03-12-2018 07:34:53
Views:412
Hits:60

Download Torrent

Ratings:Not Yet Rated (Log in to rate it)


Tracker:
http://share.camoe.cn:8080/announce

This Torrent also has backup trackers
URLSeedersLeechersCompleted
http://share.camoe.cn:8080/announce000
http://t.nyaatracker.com:80/announce242
http://asnet.pw:2710/announce000
http://tracker.tfile.co:80/announce000
http://pt.lax.mx:80/announce000
http://tracker.bt-hash.com:443/announce000
http://grifon.info:80/announce000
http://retracker.spark-rostov.ru:80/announce000


File List: 


Comments

No comments still posted

Powered by 10 Hamsters v2-svn -|- Page Generated In 0.611829 secs.
-|- RSS FEED
Theme By: Nikkbu